Miembros : 5833   ( +31 )
Publicaciones : 77959  ( +158 )
Comentarios: 6835  ( +0 )

Baby shower [DVDRip Terror Castellano 2011 .Avi FJ]

white-space: nowrap;overflow:hidden !important;text-overflow: ellipsis;">Baby shower [DVDRip Terror Castellano 2011 .Avi FJ]

9-11-2011, 17:29 - por orlando_2312 - en Peliculas - # Descargas: 442




DESCARGAR

Baby shower [DVDRip Terror Castellano 2011 .Avi FJ]




Caps


Baby shower [DVDRip Terror Castellano 2011 .Avi FJ]


Ficha Tenica

AÑO 2011
DURACIÓN 100 min.
DIRECTOR Pablo Illanes
GUIÓN Pablo Illanes
MÚSICA James Frazier
FOTOGRAFÍA Tevo Díaz
REPARTO Ingrid Isensee, Patricia López, Claudia Burr,
Francisca Merino, Nicolás Alonso, Sofía García,
Álvaro Gómez, María José Illanes, Renato
Illanes, Pablo Krögh, Berta Lasala,
Jesús Porres, Kiki Rojo
PRODUCTORA Sobras / La Hora / Los Contenidos / VTR
GÉNERO Terror

Datos de ripeo

General
Complete name : files/O2312BBYSHWCAS.avi
Format : AVI
Format/Info : Audio Video Interleave
File size : 701 MiB
Duration : 1h 31mn
Overall bit rate : 1 067 Kbps
Writing application : VirtualDubMod 1.5.4.1 (build 2178/release)
Writing library : VirtualDubMod build 2178/release

Video
ID : 0
Format : MPEG-4 Visual
Format profile : Advanced Simple@L5
Format settings, BVOP : Yes
Format settings, QPel : No
Format settings, GMC : No warppoints
Format settings, Matrix : Custom
Codec ID : XVID
Codec ID/Hint : XviD
Duration : 1h 31mn
Bit rate : 932 Kbps
Width : 688 pixels
Height : 384 pixels
Display aspect ratio : 16:9
Frame rate : 23.976 fps
Color space : YUV
Chroma subsampling : 4:2:0
Bit depth : 8 bits
Scan type : Progressive
Bits/(Pixel*Frame) : 0.147
Stream size : 612 MiB (87%)
Writing library : XviD 58

Audio
ID : 1
Format : MPEG Audio
Format version : Version 1
Format profile : Layer 3
Mode : Joint stereo
Codec ID : 55
Codec ID/Hint : MP3
Duration : 1h 31mn
Bit rate mode : Constant
Bit rate : 128 Kbps
Channel(s) : 2 channels
Sampling rate : 48.0 KHz
Stream size : 84.1 MiB (12%)
Alignment : Aligned on interleaves
Interleave, duration : 83 ms (2.00 video frames)
Interleave, preload duration : 504 ms
Writing library : LAME3.98r
Encoding settings : -m j -V 4 -q 2 -lowpass 17 -b 128
Language : Spanish

Descarga

Servidor #1

Parte 1
http://www.filejungle.com/f/BYRHNt/O2312BBYSHWCAS.avi.part1.rar
Parte 2
http://www.filejungle.com/f/JjZ7cE/O2312BBYSHWCAS.avi.part2.rar

Nota: Si encuentras un link caído avísame para volverlo a subir



DESCARGAR

Baby shower [DVDRip Terror Castellano 2011 .Avi FJ]




Comentarios
Angel
angelmerida 14 Enero 2013 15:04

Añadir comentario!

Información
Usuarios que están en este grupo no pueden dejar comentarios en la página